Jump to content

Нужно ли медиаприставку для просмотра качественных фильмов?


Recommended Posts

Здравствуйте! У меня телевизор philips 43pus7304/12 (очень ambilight нравиться) и комплект акустики Onkyo 5915. Качаю фильмы с торрентов, вставляю флешку в ТВ - всё ок, телик картинку показывает, звук на колонки передаёт. Но вот захотелось хорошее качество, скачал фильм на 56 ГБ. И телек не может его нормально прочитать - подтормаживает. Сначала думал может это внешний hdd медленный - но нет, вставил в другой ТВ, самсунг, там всё ок. Наверное просто в филипса мало памяти и он не вытягивает. Теперь думаю купить медиаприставку, например Nvidia Shield TV Pro, чтобы она по hdmi отдавала сигнал на ресивер онкио, а он уже на ТВ, смарт ТВ станет просто ТВ. Так же должно быть нормально? Как вообще это правильно делается? Как смотреть большие фильмы? Спасибо! 

Link to post
Share on other sites
  • Replies 91
  • Created
  • Last Reply

Top Posters In This Topic

Top Posters In This Topic

Popular Posts

С приставкой - нормально. Nvidia Shield - хорошая

Если в качестве смарта используется Android TV (например в Sony), то вполне хватит. Смарт на Самсунге и LG не обладают нужной гибкостью (про подставу от Самса думаю все слышали).  Себе купил прис

Эх, чего не сделаешь ради адблока. 99% контента для отпрысков - на ютубе, смотреть ее без адблока давно нереал (гнусный спам каждые 20 секунд), а натянуть рабочий адблок на старый макмини у меня с раз

Posted Images

21 минуту назад, IBleSSeDI сказал:

Здравствуйте! У меня телевизор philips 43pus7304/12 (очень ambilight нравиться) и комплект акустики Onkyo 5915. Качаю фильмы с торрентов, вставляю флешку в ТВ - всё ок, телик картинку показывает, звук на колонки передаёт. Но вот захотелось хорошее качество, скачал фильм на 56 ГБ. И телек не может его нормально прочитать - подтормаживает. Сначала думал может это внешний hdd медленный - но нет, вставил в другой ТВ, самсунг, там всё ок. Наверное просто в филипса мало памяти и он не вытягивает. Теперь думаю купить медиаприставку, например Nvidia Shield TV Pro, чтобы она по hdmi отдавала сигнал на ресивер онкио, а он уже на ТВ, смарт ТВ станет просто ТВ. Так же должно быть нормально? Как вообще это правильно делается? Как смотреть большие фильмы? Спасибо! 

С приставкой - нормально. Nvidia Shield - хорошая

  • Like 3
Link to post
Share on other sites

C вашим телевизором не имеет смысла качать фильмы такого объема. Разницу с full hd вы не увидите. Ну разве только если сидите за ним, как за монитором. Имхо конечно. Вышеупомянутая приставка хорошая.

Link to post
Share on other sites
14 часов назад, IBleSSeDI сказал:

скачал фильм на 56 ГБ.

Качаю в фильм в пределах  10 -11 Гб , далее трудно разглядеть различие.

  • Like 2
Link to post
Share on other sites

Старая плазма Philips 42PF9631D/10 Cineos, весит килограмм 45, жрет как утюг, но менять не хочу, он теплый и ламповый. 

 

К нему докуплена уже третья по счету Андроид-ТВ-приставка. На этот раз X96 Air на Amlogic S905X3 с кастомной прошивкой SLIM-BOX. Огромный плюс что она двухдиапазонная, это дает возможность вечером смотреть фильмы и сериалы в 4К через Wi-Fi на 5ГГц, пока другие соседи матерятся на перегрузку Wi-Fi 2.4 ГГц на этаже с 6 квартирами... Чем там пользуюсь - Youtube (подписка на интересные каналы и новости), HD Videobox (фильмы и сериалы, их там милльен в хорошем качестве и озвучке) и какое-то ТВ-приложение на 1000 кабельных каналов на русском, включая эфирные, которые смотреть небезопасно для психики ) Ключевой момент - все бесплатно. Включил и смотри. Торренты уже забыл как выгдядят и зачем что-то качать если включил и смотри.

 

Приставка  - https://4pda.ru/forum/index.php?showtopic=969746

Примерно как выглядит интерфейс 

 

 

image.png.195ee25ff214f2a90c47aba44e3f68d0.png

 

 

  • Like 3
Link to post
Share on other sites
3 часа назад, Michigan сказал:

Ключевой момент - все бесплатно. Включил и смотри.

А крэки  ,какие нибудь надо ставить?

Link to post
Share on other sites
3 часа назад, Michigan сказал:

Старая плазма Philips 42PF9631D/10 Cineos, весит килограмм 45, жрет как утюг, но менять не хочу, он теплый и ламповый. 

OLED уделывает это теплое ламповое изображение по всем параметрам, а встроенный (в ТВ) проигрыватель - большинство приставок :)

  • Funny 2
Link to post
Share on other sites
17 часов назад, Фдуч сказал:

OLED уделывает это теплое ламповое изображение по всем параметрам, а встроенный (в ТВ) проигрыватель - большинство приставок :)

LG не лублу. Огромное количество брака по статистике Мвидео. А серия Cineos у Филипса была просто шикарна по картинке. И встроенный в ЛЖ проигрыватель это только платные сервисы типа ОККО.

  • Like 1
Link to post
Share on other sites
47 минут назад, Michigan сказал:

LG не лублу

Только Сони, у меня есть и ЛЖ ( вроде ничего) , но Соня показывает ,все по особому ...

Link to post
Share on other sites
В 09.12.2020 в 09:23, Blues сказал:

Joseffff прав, нет смысла в 56 гб в Вашем случае

Впринципе согласен, но у меня хорошая акустика и я хочу хороший звук, а часто бывает так, что звук хороший только там, где и видео хорошее. 

Вот напримерв фильме на 56 гб.

английская дорожка: Размер потока                            : 4,40 Гбайт (8%)

4гб только звука!

А в фильме на 13гб -  аудио 1.5 гб.

Я не против смотреть фильмы в Full HD, но хочу звук нормальный. Я не так ищу? Спасибо.

Link to post
Share on other sites
7 часов назад, Michigan сказал:

LG не лублу. Огромное количество брака по статистике Мвидео. А серия Cineos у Филипса была просто шикарна по картинке. И встроенный в ЛЖ проигрыватель это только платные сервисы типа ОККО.

Sony на матрицах LG делает такую картинку, что корейцы вешаются от зависти, но повторить не могут.

Megogo бесплатный (основные ТВ-каналы) на Sony.

Link to post
Share on other sites

Особенно по особому телевизорам сони удаются динамические сцены ). Смотрел как то топ модель как то, титры не могла показать нормально, не говоря уже про динамичные моменты в кино. По моему это была 9005, но могу ошибаться. Статическая картинка впрочем была приятная.

Link to post
Share on other sites
48 минут назад, Joseffff сказал:

Особенно по особому телевизорам сони удаются динамические сцены ). Смотрел как то топ модель как то, титры не могла показать нормально, не говоря уже про динамичные моменты в кино. По моему это была 9005, но могу ошибаться. Статическая картинка впрочем была приятная.

Видимо потому он (9505) и стоит в 4 раза дешевле того, о котором тут говорим :)

Link to post
Share on other sites
54 минуты назад, Joseffff сказал:

Особенно по особому телевизорам сони удаются динамические сцены ). Смотрел как то топ модель как то, титры не могла показать нормально, не говоря уже про динамичные моменты в кино. По моему это была 9005, но могу ошибаться. Статическая картинка впрочем была приятная.

Так это же ЖК обычная, бюджетная

Link to post
Share on other sites

Нет, номером я могу и ошибиться. Это был один из верхних тв стоимостью больше 2000 дол

Link to post
Share on other sites
6 минут назад, Joseffff сказал:

Нет, номером я могу и ошибиться. Это был один из верхних тв стоимостью больше 2000 дол

Все равно в 2,5 раза дешевле того, о котором говорим :)

Link to post
Share on other sites

Осталось выяснить о какой модели говорите вы )

Link to post
Share on other sites
35 минут назад, Joseffff сказал:

Осталось выяснить о какой модели говорите вы )

OLED

Link to post
Share on other sites

Интересная модель. Только обработка динамических сцен зависит не только от типа экрана, но и от процессора тв. И в каждой модели она своя в итоге. На тот момент с оледами была ровно та же беда в динамических сценах. Как сейчас не знаю, пару лет в телевизоры не заглядывал. И вообще это по моему офтоп все.

Link to post
Share on other sites
29 минут назад, Joseffff сказал:

Интересная модель. Только обработка динамических сцен зависит не только от типа экрана, но и от процессора тв. И в каждой модели она своя в итоге. На тот момент с оледами была ровно та же беда в динамических сценах. Как сейчас не знаю, пару лет в телевизоры не заглядывал. И вообще это по моему офтоп все.

Ну коли затронули ТВ, то сейчас совсем другое поколение что ОЛЕД, что обычных технологий.

1. Современные ОЛЕД ушли вперед, но имхо проигрывают плазме - https://www.youtube.com/watch?v=iLdkiyYeod8

2. Сравнение ТВ в играх (сравнение LG, Самсунга и Сони ) - 

 

  • Like 1
Link to post
Share on other sites

Верхняя модель от Сони ( не ОЛЕД) на 65 дюймов 9505 стоит она от 130 тыс., Показывает она так ,что во второе жилье я купил  точно ТАКОЙ же тв Сони 9505 .Правда первый был серый из Словакии он обошёлся мне за 111 тысяч. Второй уже с чеками  126 тыс. руб. Он показывает просто по другому ,у меня в другой комнате есть ЛЖ 55 дюймов , показывает хорошо . Но надо сказать, что когда то просмотренные фильмы на СОни смотрятся абсолютно по другому , смотришь как будто другой фильм!! Там немного другая цветовая палитра-она зелено- синяя. А на ЛЖ желтовато-красная  ( ИМХО ) кончено . А на Самсунге неестественно сиреневая . Вообще Самсунг для меня показывает такими цветами ,которых нет в природе. Но у Сони есть минус ,встроенный проигрыватель не самый лучший....

  • Like 2
Link to post
Share on other sites

У меня тоже Сони Большой экран .Покупал перед Майданом .До подорожания .2 процессора в рекламе написано ..Свой медиаплеер и зачем то камера .Показывает хорошо .Не размазывает ни чего .Собранно и качественно идет изображение .Медиаплеер  у него тоже нормальный .Но я пользуюсь -отдельным .Дюной \Китай\ Отличный Интерфейс богатейший ..Все есть и аудио даже разные выхода и можно в хай фае воспроизводить  .Брал всего за 15 в ДНС .Сейчас их не выпускают -с двумя отделами для ЖД -зачем то ......

Link to post
Share on other sites
В 09.12.2020 в 09:23, Blues сказал:

Joseffff прав, нет смысла в 56 гб в Вашем случае

Впринципе согласен, но у меня хорошая акустика и я хочу хороший звук, а часто бывает так, что звук хороший только там, где и видео хорошее. 

Вот напримерв фильме на 56 гб.

английская дорожка: Размер потока                            : 4,40 Гбайт (8%)

4гб только звука!

А в фильме на 13гб -  аудио 1.5 гб.

Я не против смотреть фильмы в Full HD, но хочу звук нормальный. Я не так ищу? Спасибо.

  • Like 1
Link to post
Share on other sites

Представляете, цветопередача в современных телевизорах настраивается ). Самсунг делает привычную для азиатов картинку, но ее можно сделать правильной. У сони просто настройки по умолчанию правильные для европейцев. Лыжи в этом отношении хуже всех. Из тех, что я видел, руками худе всего настраивались, и даже не в цветах дело, а в какой то неестественности цветовых переходов.

Link to post
Share on other sites

Join the conversation

You can post now and register later. If you have an account, sign in now to post with your account.
Note: Your post will require moderator approval before it will be visible.

Guest
Reply to this topic...

×   Pasted as rich text.   Paste as plain text instead

  Only 75 emoji are allowed.

×   Your link has been automatically embedded.   Display as a link instead

×   Your previous content has been restored.   Clear editor

×   You cannot paste images directly. Upload or insert images from URL.

  • Recently Browsing   0 members

    No registered users viewing this page.

  • Similar Content

    • By Vetusto
      Коллеги, 
      сейчас цифровой тракт выглядит так: 
      комп + цап Teac UD-501+Усилитель Yamaha A2000 + акустика DIATONE DS-90C. 
      ловлю себя на мысли, что все чаще слушаю винил, потому что меньше времени занимает включение. 
      пока комп включишь, пока телек переведёшь на комп, пока плеер включишь….
      в общем, думаю, пришло время купить стационарный плеер с управлением или с телефона, или с пульта с выводом на телевизор. Такой, чтобы можно было подключить по сети к компу и Файлы брать с компа.
      на ум кроме Teac NT-503 ничего не лезет. 
      что можете посоветовать?
    • By Semin
      Добрый день! 
      Хочу для дома собрать бюджетную систему.
      Компоненты рассматриваю б.у., вот подобрал такие варианты:
      Bowers & Wilkins 685(от 15 до 25к рублей)
      Onkyo 989ver2(примерно 20-25к рублей)
      Либо Parasound 7100(примерно 25к рублей)
      Систему хотелось бы универсальную, но случаю в основном: джаз, блюз, классика, старый рок.
      Так как я не опытный, прошу вашего мнения и советов, что ещё можно посмотреть в этой цене.
    • By IBleSSeDI
      Хочу себе домой 5.1-канальную систему. Основной сценарий использования — фильмы.
      Сейчас выбираю между готовым комплектом Onkyo HT-S5915 или Denon 250 + TAGA Harmony TAV-406 v.2 Set + сабвуфер Taga Harmony Vigor SW-8.
      Что посоветуете? Что лучше звучит?
    • By Treffer
      В комплект к таким АС https://www.heco-audio.de/ru/speaker/direkt-einklang/
      купил на ВСЕ деньги Б/У  усилитель http://www.ta-hifi.ru/position/1524521498/
      В качестве источника сейчас -ТЕЛЕФОННЫЙ УСИЛИТЕЛЬ ресивера Yamaha RX-A550 (слушать невозможно )
      Вся коллекция на файлах (флак). Компа дома нет (есть на работе). Плеер Hidizs сдох. Ближайшие год-два покупка источника не рассматривается вообще (даже за 5-10 т. руб) - надо помочь сыну с домом. А без хорошего звука..... печаль.
      Поэтому, прошу уважаемых форумчан, по возможности, безвозмездно поделиться:
      1. файловый источник (с юсб-флешки).
      2. цап 
      3. медиаплеер (вход флешка, выход RCA или балансный)
      4. Шнур RCА или балансный (смотря какой выход у цапа)
      Доставку готов оплатить. Как куплю источник - верну девайс или также безвозмездно отдам в хорошие руки. Писать в личку.
      С уважением, Станислав, 48 лет (аккуратный меломан)
      г. Новосибирск
       
    • By Treffer
      Доброго дня, уважаемые форумчане!
      В данной теме предполагается  обсуждать музыкальные системы типа "всё-в-одном".
      Ранее, на ресурсе был проведён групповой обзор данный интересных устройств: 
      https://readymag.com/soundex/streamamps/intro/
      Ассортимент и стоимость музыкальных систем данного вида можно посмотреть здесь:
      https://avcomfort.ru/cat394.html
      Прошу высказываться.
×
×
  • Create New...